我爱高清影视

 找回密码
 立即注册
搜索
热搜: 活动 交友 discuz
查看: 47|回复: 1

[2016] [其他] [纪录] [打包] [BT下载][胖自何方?/Why Are We Fat? 第一季][全03集打包][英语英字][MKV][720P/1080P][片源]

[复制链接]
等级头衔

等級:管理员

Rank: 9Rank: 9Rank: 9

最佳新人

积分成就
积分
6639
主题
6290
精华
13
金币
1
积分
6639
注册时间
2020-1-16
最后登录
2020-8-9

快捷版块
版块
吹水闲聊区
版块
优秀资源发布区
版块
香港高清电视剧
版块
港产电影高清下载
版块
港产高清综艺下载
版块
时事新闻
版块
高清电影资源
版块
综艺节目专区
版块
音乐资源专区
版块
国产电视区专区
版块
台湾电视剧专区
版块
日韩电视剧专区
版块
欧美电视剧专区
版块
动画片专区
版块
3D/VR视频专区

惊喜不断

最佳新人

发表于 2020-4-28 00:37:17 | 显示全部楼层 |阅读模式

[2016] [其他] [纪录] [打包] [BT下载][胖自何方?/Why Are We Fat? 第一季][全03集打包][英语英字][MKV][72 ...

[2016]	[其他]	[纪录]	[打包]	[BT下载][胖自何方?/Why Are We Fat? 第一季][全03集打包][英语英字][MKV][72 ...

◎译  名 胖自何方?
◎片  名 Why Are We Fat?
◎年  代 2016
◎产  地 新西兰
◎类  别 纪录片
◎语  言 英语
◎集  数 3
◎片  长 44分钟
◎导  演 Will Sergeant / Mark McNeill
◎主  演 Simon Gault



◎简  介  

  肥胖已成为地球上最大的健康危机。《胖自何方?》针对传统健康谘询的重复考察科学,以及我们面临的健康隐患所出现的新证据进行深入研究。由擅长预防超重与肥胖的专业厨师Simon Gault 与世界各地的专家进行访谈,他将自己当作人类试验品,试图改善其健康。

Video
ID : 1
Format : AVC
Format/Info : Advanced Video Codec
Format profile : High@L4
Format settings : CABAC / 4 Ref Frames
Format settings, CABAC : Yes
Format settings, ReFrames : 4 frames
Codec ID : V_MPEG4/ISO/AVC
Duration : 44 min 47 s
Bit rate mode : Constant
Bit rate : 10 000 kb/s
Width : 1 920 pixels
Height : 1 080 pixels
Display aspect ratio : 16:9
Frame rate mode : Constant
Frame rate : 25.000 FPS
Standard : PAL
Color space : YUV
Chroma subsampling : 4:2:0
Bit depth : 8 bits
Scan type : Progressive
Bits/(Pixel*Frame) : 0.193
Stream size : 3.09 GiB (98%)
Language : English
Default : Yes
Forced : No
Color range : Limited
Color primaries : BT.709
Transfer characteristics : BT.709
Matrix coefficients : BT.709

Audio
ID : 2
Format : E-AC-3
Format/Info : Enhanced AC-3
Commercial name : Dolby Digital Plus
Codec ID : A_EAC3
Duration : 44 min 47 s
Bit rate mode : Constant
Bit rate : 224 kb/s
Channel(s) : 2 channels
Channel layout : L R
Sampling rate : 48.0 kHz
Frame rate : 31.250 FPS (1536 SPF)
Compression mode : Lossy
Stream size : 71.8 MiB (2%)
Language : English
Service kind : Complete Main
Default : Yes
Forced : No

Text
ID : 3
Format : UTF-8
Codec ID : S_TEXT/UTF8
Codec ID/Info : UTF-8 Plain Text
Duration : 44 min 8 s
Bit rate : 108 b/s
Count of elements : 947
Stream size : 34.9 KiB (0%)
Title : SDH
Language : English
Default : No
Forced : No



2 个附件
游客,如果您要查看本帖隐藏内容请回复



等级头衔

等級:试用

Rank: 1

积分成就
积分
1
主题
0
精华
0
金币
0
积分
1
注册时间
2020-7-30
最后登录
2020-7-30

快捷版块
版块
吹水闲聊区
版块
优秀资源发布区
版块
香港高清电视剧
版块
港产电影高清下载
版块
港产高清综艺下载
版块
时事新闻
版块
高清电影资源
版块
综艺节目专区
版块
音乐资源专区
版块
国产电视区专区
版块
台湾电视剧专区
版块
日韩电视剧专区
版块
欧美电视剧专区
版块
动画片专区
版块
3D/VR视频专区

惊喜不断

发表于 2020-7-30 17:50:00 | 显示全部楼层
我找这个片子很久了,终于在论坛看到。非常感谢
回复

使用道具 举报

您需要登录后才可以回帖 登录 | 立即注册

本版积分规则

侧边导航

  •    
    ΪԾʣ
  • 看看其他版块

  • 精彩内容推荐

QQ|Archiver|手机版|小黑屋|我爱高清影视

JS of wanmeiff.com and vcpic.com Please keep this copyright information, respect of, thank you!JS of wanmeiff.com and vcpic.com Please keep this copyright information, respect of, thank you!

|网站地图

GMT+8, 2020-8-9 13:57 , Processed in 0.081226 second(s), 47 queries .

Powered by Discuz! X3.4

Copyright © 2001-2020, Tencent Cloud.

快速回复 返回顶部 返回列表